Shes Got Game | Маша и медведь: Шарики и кубики [72] (2018) WEB-DLRip-AVC от ExKinoRay | Master PDF Editor 5 0 23 Patch

Hyenas 2011 720p BluRay Dual Audio English Hindi GOPISAHI

Format : Matroska
Format version : Version 4 / Version 2
File size : 575 MiB
Duration : 1 h 32 min
Overall bit rate : 867 kb/s
Movie name : Hyenas 2011

Download Here                   Watch Now

Video
Format : AVC
Codec ID : V_MPEG4/ISO/AVC
Duration : 1 h 32 min
Bit rate : 700 kb/s
Width : 1 280 pixels
Height : 720 pixels
Display aspect ratio : 16:9
Frame rate mode : Constant
Frame rate : 23.976 (24000/1001) FPS
Stream size : 464 MiB (81{c3004b8f5e0f37c8553e313d82107df75406ab532a995ee1e957eb0f6eb30398})
Writing library : x264 core 152 r2851 ba24899

Audio #1
Format : AAC
Duration : 1 h 32 min
Bit rate : 87.3 kb/s
Channel(s) : 6 channels
Channel positions : Front: L C R, Side: L R, LFE
Sampling rate : 44.1 kHz
Frame rate : 43.066 FPS (1024 SPF)
Stream size : 57.9 MiB (10{c3004b8f5e0f37c8553e313d82107df75406ab532a995ee1e957eb0f6eb30398})
Language : English

Audio #2
Format : AAC
Duration : 1 h 32 min
Bit rate : 77.6 kb/s
Channel(s) : 6 channels
Channel positions : Front: L C R, Side: L R, LFE
Sampling rate : 44.1 kHz
Frame rate : 43.066 FPS (1024 SPF)
Compression mode : Lossy
Stream size : 51.5 MiB (9{c3004b8f5e0f37c8553e313d82107df75406ab532a995ee1e957eb0f6eb30398})
Language : Hindi

DRIVE

INDI

PW

Recent search terms:

Loading...