Menendez: Irmãos de Sangue Assistir Menendez: Irmãos de Sangue 720p Dublado/Legendado Online Filme baseado na história de Lyle e Erik Menendez, dois irmãos condenados pelo assassinato de seus pais, em Beverly Hills, Califórnia, 1989. Ver filme Menendez: Irmãos de Sangue Dublado/Legendado Ver Filme Menendez: Blood Brothers Dublado/Legendado (2017) Assistir Filmes Online em HD Assista filmes online HD na sua tv e celular - Trailer no youtube. Sinopse, elenco, direção, ... | Hairy Girls | Son In Law Edition

Mechanic Resurrection (2016) Dvdscr Hindi (cleaned) English x264 Download Watch Online

Mechanic Resurrection 2016 Dvdscr Hindi cleaned English x264 Download Watch Online

Mechanic Resurrection 2016 Dvdscr Hindi cleaned English

Mechanic: Resurrection
2016 ‧ Thriller/Action
Master assassin Arthur Bishop (Jason Statham) must save the woman (Jessica Alba) he loves from deadly kidnappers who want him to take out a handful of targets.

 SOURCE – UNKNOWN KING ( Thanx )

Initial release: 2016 (Belgium)
Director: Dennis Gansel
Film series: The Mechanic film series
Music director: Mark Isham
Screenplay: Philip Shelby, Tony Mosher, Rachel Long, Brian Pittman
Download Here                   Watch Now

Info
==================================================
General
Complete name : Mechanic Resurrection 2016
Format : MPEG-4
Format profile : Base Media / Version 2
Codec ID : mp42
File size : %%
Duration : 1h 34mn
Overall bit rate mode : Variable
Overall bit rate : 1 065 Kbps

Video
ID : 1
Format : AVC
Format/Info : Advanced Video Codec
Format profile : [email protected]
Format settings, CABAC : Yes
Format settings, ReFrames : 4 frames
Codec ID : avc1
Codec ID/Info : Advanced Video Coding
Duration : 1h 34mn
Bit rate : 900 Kbps
Width : 720 pixels
Height : 320 pixels
Display aspect ratio : 2.25:1
Frame rate mode : Variable
Frame rate : 23.876 fps
Minimum frame rate : 11.989 fps
Maximum frame rate : 23.981 fps
Color space : YUV
Chroma subsampling : 4:2:0
Bit depth : 8 bits
Scan type : Progressive
Bits/(Pixel*Frame) : 0.164
Stream size : 603 MiB (84%)
Writing library : x264 core 144 r2525 40bb568

Audio
ID : 2
Format : AAC
Format/Info : Advanced Audio Codec
Format profile : LC
Codec ID : 40
Duration : 1h 34mn
Bit rate mode : Variable
Bit rate : 161 Kbps
Channel(s) : 2 channels
Channel positions : Front: L R
Sampling rate : 48.0 KHz
Compression mode : Lossy
Stream size : 108 MiB (15%)
Language : English – HINDI (CLEAN)

==================================================
m12

Mechanic Resurrection 2016 Dvdscr Hindi cleaned English

Sample Link

Download Links

DIRECT DOWNLOAD 

WATCH ONLINE

Loading...